» » Rupture (2016) BRRip.XviD.MP3-RARBG
Obrazki z pliku

Rupture (2016) BRRip.XviD.MP3-RARBG

Dane techniczne

Rupture (2016) BRRip.XviD.MP3-RARBG

Video
ID : 0
Format : MPEG-4 Visual
Format profile : [email protected]
Format settings, BVOP : No
Format settings, QPel : No
Format settings, GMC : No warppoints
Format settings, Matrix : Default (H.263)
Codec ID : XVID
Codec ID/Hint : XviD
Duration : 1h 41mn
Bit rate : 1 315 Kbps
Width : 720 pixels
Height : 302 pixels
Display aspect ratio : 2.40:1
Original display aspect ratio : 2.40:1
Frame rate : 23.976 fps
Color space : YUV
Chroma subsampling : 4:2:0
Bit depth : 8 bits
Scan type : Progressive
Compression mode : Lossy
Bits/(Pixel*Frame) : 0.252
Stream size : 952 MiB (86%)
Title : RARBG.COM - Rupture.2016.BRRip.XviD.MP3-RARBG
Writing library : Lavc56.60.100

Audio
ID : 1
Format : MPEG Audio
Format version : Version 1
Format profile : Layer 3
Mode : Joint stereo
Mode extension : MS Stereo
Codec ID : 55
Codec ID/Hint : MP3
Duration : 1h 41mn
Bit rate mode : Constant
Bit rate : 192 Kbps
Channel(s) : 2 channels
Sampling rate : 48.0 KHz
Compression mode : Lossy
Stream size : 139 MiB (13%)
Alignment : Aligned on interleaves
Interleave, duration : 24 ms (0.58 video frame)
Interleave, preload duration : 24 ms
Writing library : LAME3.99.5

Rodzaj kompresji: .rar

Serwery: Catshare,

Kategoria Filmy     data 6 Styczeń 2017, 00:39     Wyświetleń 23     link Podobne     link Słowa kluczowe    


Linki do Gier Linki do Filmów Filmy online RSS Regulamin Sitemap Kontakt Uwaga! Żaden z plików nie znajduje się na serwerze / None of the files located on the server. Administracja nie ponosi odpowiedzialności za materiały publikowane przez użytkowników. Serwis udostępnia jedynie informację na temat plików (tytuł, nazwa release, dane techniczne itp.) oraz odnośniki do serwisów na których znajdują się materiały (turbobit.net, uploaded.to itp.). Wszelkie roszczenia prawne należy kierować do serwisów zamieszczających materiały. Copyright © 2016-2017 linkarena.pl, All rights reserved.