» » Rupture (2016) BRRip.XviD.AC3-RARBG
Obrazki z pliku

Rupture (2016) BRRip.XviD.AC3-RARBG

Dane techniczne

Rupture (2016) BRRip.XviD.AC3-RARBG

Video
ID : 0
Format : MPEG-4 Visual
Format profile : [email protected]
Format settings, BVOP : No
Format settings, QPel : No
Format settings, GMC : No warppoints
Format settings, Matrix : Default (H.263)
Codec ID : XVID
Codec ID/Hint : XviD
Duration : 1h 41mn
Bit rate : 1 315 Kbps
Width : 720 pixels
Height : 302 pixels
Display aspect ratio : 2.40:1
Frame rate : 23.976 fps
Color space : YUV
Chroma subsampling : 4:2:0
Bit depth : 8 bits
Scan type : Progressive
Compression mode : Lossy
Bits/(Pixel*Frame) : 0.252
Stream size : 952 MiB (74%)
Writing library : Lavc56.60.100

Audio
ID : 1
Format : AC-3
Format/Info : Audio Coding 3
Mode extension : CM (complete main)
Format settings, Endianness : Big
Codec ID : 2000
Duration : 1h 41mn
Bit rate mode : Constant
Bit rate : 448 Kbps
Channel(s) : 6 channels
Channel positions : Front: L C R, Side: L R, LFE
Sampling rate : 48.0 KHz
Frame rate : 31.250 fps (1536 spf)
Compression mode : Lossy
Stream size : 324 MiB (25%)
Alignment : Aligned on interleaves
Interleave, duration : 42 ms (1.00 video frame)
Interleave, preload duration : 512 ms

Rodzaj kompresji: .rar

Serwery: Catshare,

Kategoria Filmy     data 5 Styczeń 2017, 23:40     Wyświetleń 58     link Podobne     link Słowa kluczowe    


Linki do Gier Linki do Filmów Filmy online RSS Regulamin Sitemap Kontakt Uwaga! Żaden z plików nie znajduje się na serwerze / None of the files located on the server. Administracja nie ponosi odpowiedzialności za materiały publikowane przez użytkowników. Serwis udostępnia jedynie informację na temat plików (tytuł, nazwa release, dane techniczne itp.) oraz odnośniki do serwisów na których znajdują się materiały (turbobit.net, uploaded.to itp.). Wszelkie roszczenia prawne należy kierować do serwisów zamieszczających materiały. Copyright © 2016-2017 linkarena.pl, All rights reserved.